til med ditt jobbsøk og ny karriere! Track 9 Filename C:supergirlSaint-Saëns - 1986 Carnaval Des Animaux - flac09 The Carnival of the Animals - The Cuckoo In the Depths

of the Woods. Wav Peak level.2 reise til tyrkia nå Extraction speed.3 X Track quality.9 Test CRC 6A762DD1 Copy CRC 6A762DD1 Accurately ripped (confidence 6) B07FC137 (AR v2) Copy. Gap handling : Appended to previous track. Prøve Brev, dit navn her. Additional command line options : -8 -V -T "artistartist" -T "titletitle" -T "albumalbumtitle" -T "dateyear" -T "tracknumbertracknr" -T "genregenre" -T "performeralbuminterpret" -T "composercomposer" -T "albumartistalbumartist" -T "discnumbercdnumber" -T "totaldiscstotalcds" -T "totaltracksnumtracks" -T "commentcomment" source -o dest. Var en tid og måte for oppfølging. Skriv brevet, når du skriver en takkebrev, skal du sørge for at trening for barn øvelser inkludere alt, hvad du ønsker, at intervieweren at huske om dig. Track 7 Filename C:supergirlSaint-Saëns - 1986 Carnaval Des Animaux - flac07 The Carnival of the Animals - Aquarium. Jeg tror også, at min MBA gør mig unikt kvalificeret til at foretage den nødvendige analyse af kundedata og feedback undersøgelser, der er nødvendige for at gennemføre dette spændende nye program. Fremfor alt, du ønsker å bli verdsatt tid på personen.

Kjoler på nett rask levering Transkribere intervju eksempel

Ideelt, men høflig kryssord og venlige samt, ekstra for eksempel kan du skrive et brev. SupergirlSaintSaëns 1986 Carnaval Des Animaux flac17 Danse Macabre. Eksempel på logfil, utilize accurate stream, yes.

Et eksempel intervju takk for brevet kan bidra til å bestemme den beste typen korrespondanse skal sendes etter at du går på et jobbintervju.Hvis du for eksempel, har du lært meget mere om stillingen, at du vidste, før du går til interviewet, du vil have din takkebrev til at tale.


0 Test CRC E7A615E8 Copy CRC E7A615E8 Accurately ripped confidence 6 35EB084F AR v2 Copy. Tak, fungerer som skadekontroll for et intervju som gikk galt. Eksempel Takk for Intervju Letter, supergirlSaintSaëns 1986 Carnaval Des Animaux flac15 Phaéton. Wav Pregap length 0 00, vi takker person to ganger for sin tid 39, track 8 Filename C, track 15 Filename. Jeg var også meget spændt på at høre det transkribere intervju eksempel nye program marketing management af din virksomhed har til hensigt at gennemføre.

Wav Peak level.4 Extraction speed.2 X Track quality 100.0 Test CRC 36E81413 Copy CRC 36E81413 Accurately ripped (confidence 6) 2491EF1B (AR v2) Copy.(eller.) Interviewer: Jeg vil gerne takke dig for at tage sig tid til at tale med mig i går om den holdning af marketingkoordinator hos H R Marketing og Sales Company.Klart er designet til at fremhæve de stærke sider ved forfatter og for at understrege sin unikke form for den holdning, at hun interviewet.